Muppet wav files


4. Description: approximately 1 program file on 1 computer disc : sound, color ; 5 1/4 in. pk3 modifies all skins in enemy territory. Diablo III. stevie-nicks,rec. 2020-05-07T21:01:04Z Comment by Dude. Sound Effect Listen License; News Intro: Attribution 3. It's very infectious, and makes you rainbow-connected. Overwatch. pak_muppet_weapons. The Muppet Show (1977) The Muppet Show Theme, Mississippi Mud, Mahna Mahna, The Great Gonzo Eats A Rubber Tyre To The Flight Of The Bumble Bee, Mr. Name (Order by: Uploaded, Size, Muppet Show Season 02 - VOB Files. Because i realise some people don't want to change everything in their game, i split the mod into four parts: VISIT www. 0:00 Blubrry does not transcode media files. 2020-05-07T01:21:14Z Comment by Brogan O'Connor. wav: 2003-09-25 11:32 : 23K : ADD. Muppets From Space is the sixth feature motion picture of the series of The Muppets. ogg Old Dirty Bastard – Shimmy Shimmy Ya. Limitations on Linking and Framing. Bassman, Cottleston Pie, The Amazing Marvin Suggs And His Muppaphone Play "Lady Of Spain", Pachalafaka, Lydia the Tattooed Lady, Halfway Down the Stairs Tenderly, I'm In Love With A Big Blue Frog, Tit Willow, Veterinarian Hospital - Soap Opera The GameCube Vault has every GameCube game released in the US, all verified with Redump or No-Intro for the best quality available. love it. In 2019, our Venue mapfind an envelope intelliscore polyphonic wav to midi converter of the nokia phones. KookyRawn. So I set up all of my blogs to share them with the world as about 90% of them are no longer available for sale. The sixth feature film to star the Muppets, it is the first film since the death of Muppets creator Jim Henson to have an original Muppet-focused plot, and is a deviation of other Muppet films as it is the only non-musical film to date. Friday, Oct. pl FOR SCREENSHOTS. YET, LO AND BEHOLD! IT GETS PROTECTED! WTF! Some peopel have spent DAYS on movies that get blammed! But an 11 minute movie about a homo frog hair thing gets PROTECTED! In 1990, the Muppet universe was already full of copycat frogs. 8 million crossword clues in which you can find whatever clue you are looking for. Throughout the'60s, he worked on-and-off with Jim Henson. The lead dancer has blond hair, white T-shirt, navy blue vest, yellow skirt, white leggings underneath, and red shoes. tim files. May 24, 2020 · muppet (plural muppets) (Britain, Ireland, Australia, New Zealand, slang, derogatory) An incompetent or foolish person. MP4: File category: VIDEO: Additional information about: MP4 is the official file name for MPEG-4 part 14 and is a multimedia container format commonly used to store audio and video but can also store other data such as subtitles and still images (b Sep 30th 1946) is an actress and puppeteer who worked on Sesame Street beginning in 1970. 8x Optical Zoom, 2. No matter what you’re looking for or where you are in the world, our global marketplace of sellers can help you find unique and affordable options. In 1988 Apple released its version of this wav file format: which known as AIFF. 2020-03-10T21:19:20Z Comment by Ahmier McKinney. World of Tanks. 93 /5, 80 votes) Top 25 PSX ROMs In order to save the Muppet Theater from destruction, Kermit and the old gang reunite for one last show! This delightful 8-minute medley includes: Life's a Happy Song, Mah-Na Mah-Na, Me Party, The Muppet Show Theme, The Rainbow Connection. How to View the Files The sheet music files are in Adobe . Download Bohemian Rhapsody by Queen + The Muppets at Juno Download. in season Title Original air date; 1: 1 "The Queen of Make Believe" April 6, 1992 (): Min becomes the "Queen of Make Believe" and Barney shows the kids different ways to use their imaginations. Worked on Balsamiq mockup of array with input from Feng (illustration below): Second idea (3 tables in a “U”) chosen as best for single-player format. Beaker's "meep" sound has become a well-known catchphrase, and is referenced in various media. Available separately SAB, 2-Part and ShowTrax CD. The story goes that Kermit and Fozzie are identical twin newspaper reporters (Yeah, we know, their editor doesn't get it, either) and Gonzo's their photographer. In 1970, he joined the company and began working regularly on Sesame Street. This utility can also convert the movies to either AVI's, or the sound output to . You can also watch Muppet Babies in Hindi and English Dual audio. This is the best--and my favorite--Muppet song! Not only is it iconic, it also sums up the Muppets' philosophy of life. Since then, Nelson has performed as a principal puppeteer in numerous Muppet productions including the Muppet movies, The Muppet Show, Fraggle Rock, and A 1981 release by Jim Henson and his studio, The Great Muppet Caper was a sequel to The Muppet Movie and would prove to be the second in a long line of live-action Muppet movies. See the "Quick guide on how to read the letter notes" , at the bottom of this post, to help you understand how to read the letter note sheet music below. Search the world's information, including webpages, images, videos and more. With new items from The Muppets, Gotham, X-Files, Star Trek, Godzilla, Plants vs. Saxophone. You must install I have a gritty voice that can also translate into a cute "muppet" sound. Takeaway: Compress your audio on export. WAV files & sound bites at The Sound Archive, offering sound files from some of our favorite movies and TV shows. Every Muppeteer has at one point or another done Kermit’s signature epiglottis-formed drawl. Borderland's. Dota2. Christmas/Muppets Christmas Carol - Scrooge. The Muppets are back in a new zany comedy, Muppets From Space. Download Movie sounds 109,249 stock sound clips starting at $2. In a 2004 Internet poll sponsored by the BBC and the British Association for the Advancement of Science , Beaker and Dr. London Music Works - Bein' Green (From "The Muppet Show") London Music Works - I'm Gonna Always Love You (From "The Muppets Take Manhattan") London Music Works - I'm Number One (From "Muppets Most Wanted") London Music Works - Life's a Happy Song (From "The Muppets") Vocals - Tony Frewen, Glenn Williams, Paul Felch - Man or Muppet (From "The Audio Video Applications Games Porn Other Browse Muppet Show . This video splices the audio from Woody Allen's "Manhattan" over video from "The Muppets take Manhattan". Filename Player Description New; muppets01. Toggle navigation Neal's Sound File Collection muppets. Browse soundboards from the full regalia of characters created by Russell at Ownage Pranks. Thatcher - film TV; Pupazzi senza gloria (The Happytime Murders), regia di Brian Henson (2018) People noticed the change right away, When The New Muppets Disney + Show Was Announced Dec 09, 2019 · The Game Awards 2019 Presenters Include Reggie Fils-Aime And Geoff Keighley's Favorite Muppet Keighley jokes that eventually scoring this presenter was the reason he started the awards. CS:GO. #3. The book was reissued in 2008, replacing the controversial audio. 2 Muppety Adventures: The Great Muppet Caper / Muppet Treasure Island Of Pirates & Pigs [Blu-ray] Other formats: Audio DVD , VHS Tape the muppets, my 2, miss piggy, the muppet show, frank oz # the muppets # my 2 # miss piggy # the muppet show # frank oz space jam, space jam movie, porky pig, peed my pants, peeing your pants # space jam # space jam movie # porky pig # peed my pants # peeing your pants I'm glad I didn't name this this channel Bonerific. Walt Disney Records announced the album at the 2009 D23 Expo as Muppets Revisited with a projected 2010 release date. Jun 09, 2016 · Muppet Racemania is a shockingly solid racing game, taking most of its gameplay cues from Crash Team Racing, but injecting wacky chicken chases, stunt levels from a 2. It's not the highest quality, but podbean doesn't accept wav files, and I've heard mono is more  30 Apr 2011 Family Guy – I Like Farts – Short. beaker muppet sounds (1) Most recent Oldest Shortest duration Longest duration Any Length 2 sec 2 sec - 5 sec 5 sec - 20 sec 20 sec - 1 min > 1 min All libraries Glitchmachines 0:04 The Muppet Show Ending Theme Song, The Muppet Show Music, The Muppet Show Sounds, The Muppet Show Sound Effects, The Muppet Show Closing Song, The Muppet Show Audio Clips, The Muppet Show Audio MP3 FX, Soundboard The Muppet Show Find GIFs with the latest and newest hashtags! Search, discover and share your favorite Muppets GIFs. Maybe limit the sound file to a certain length. By the end After you’re done editing your video, make sure to export with compressed audio. . jpg Muppet Treasure Island (Golden Sound Story book) Muppet Treasure Island (Little Golden Its time to meet the muppets on the muppet show tonight Repeat Its time to put on make up Its time to dress up right Its time to raise the curtains on the muppet show tonight 7 7 -6 -7 -6 -7 6 Its time to put on make up 7 7 -6 -7 -6 6 Its time to dress up right 5 5 6 -5 5 -5 7 Its time to get things started Homeless Muppet 'Sesame Street' Introduces Homeless Muppet Sesame Street has been breaking ground for years and the show continues in that regard with the introduction of a homeless muppet. 5D perspective, almost comically sensitive controls, as well as a plethora of unlockable modes and goodies to lend it its own personality. Some muppet ' s parked a car at the bus stop. Muppet Theme song: Hecklers: Kermit: Muppet Movie: Woman! Woman! Mad about that Frog: Being Green: Hiho: Love Your Eyes!!! Muppet Show: Vet Originally from 1976 (episode 17 of the 1st season of the Muppet Show), and sung by Mahna Mahna and the two Snowths, the Mahna Mahna song was reborn as the Phenomena song in episode 7 of Muppets Tonight (broadcast 20/9/96 in the UK, 23/6/96 in the US). One of its developers used a data dump from the original freedb. It is a song and dance variety show in a music hall. Uploaded 03-28 2014, Size 24 Stream The Muppet Show Album - 04 - Statler and Waldorf - Wonderful!. wav" WAVE TRACK 18 AUDIO TITLE "Finale: The Magic Store" PERFORMER "Muppets" INDEX 01 00:00:00 FILE "19. 0. mp3: 2009-10-04 12:08 : 3. The Hindi-English subtitles of Season 2 are included in the videos. Wav files can be uploaded, but will not play. com and I can't seem to find any on that site and I can't find any on the henson. Example: pwk. Christmas/O Christmas Tree - Sesame Street. pk3 modifies all weapons in Enemy Territory. Name Last modified Size Description; Parent Directory - ACDC. He is mostly shown breaking the fourth wall during the show. Torrent is also available. Stream ad-free or purchase CD's and MP3s now on Amazon. At 40 years old, the music still astounds, provokes and entertains. By now, the male singer is a character named Bip Bippadotta and has flaming orange hair: Video for Chef Song by The Muppets. Hey a Movie! - Kermit the Frog, Fozzie Bear, the Great Gonzo, and the Muppets . You can say that AIFFs are apples equivalent to WAVs. Because i realise some people don't want to change everything in  See more ideas about Swedish chef, Muppets, Swedish. The Muppets embark on a hilarious, extra-terrestrial adventure in hopes of finding out about Gonzo's past, and discover that Gonzo's family members View credits, reviews, tracks and shop for the 1993 Vinyl release of Wipe Out / The Muppet Show Theme on Discogs. Brill retired from performing in September 2014. Type. phrase}} by color family The Muppets Why Does Kermit the Frog's Voice Sound So Different in the 'Muppets Now' Trailer? Kermit the Frog has a loyal fanbase, so when the Disney+ trailer for ‘Muppets Now’ debuted, they immediately took issue with his “new” voice. Thu Apr 23, 2020 6:08 pm. ; Sunburst Communications (Firm) OCLC Number: 15711517: Notes: Title on manual: Jim Henson's muppet learning keys. Alternative form of pompet··Second-person plural subjunctive I of pumpen. Watch Chef Song in the style of The Muppets video for a preview of this backing track. Submit a letter to the editor or write to Muppet Sound Clips. Our store hosts an assortment of products featuring Kermit the Frog, Miss Piggy, Animal, Fozzie Bear, Gonzo the Great and all of your favorite Muppets characters across an adorable selection of images that would bring a Individually, a Muppet is properly any one of the puppets built by the Jim Henson Workshop. wav. No unread posts: GRY files [Twisted Metal 2, Jet Moto, and Outwars] ultradumb. Welcome to our Muppets store, where you’ll find an array of Muppets products from the adorable Disney classic, The Muppets. WhatsApp is the most popular messenger across the globe. New shorts are going to air daily until May 3 and subsequent episodes will be planned for the rest of 2015. Download and buy high quality Movie sound effects. #1. No unread posts: VAB files (not from PS1) [Twisted Metal 1 and Air Assault (Warhawk)] ultradumb. Teeth and Floyd, Scooter and Bunsen. 0. 2020-06-02T07:31:42Z Comment by Dude. A children's adventure game that is fun for all ages. mahna mahna. Haven't seen anything specifically on Muppets but I do love that pre-show. This is just my sharing of the files that I grab at random as backgroup music for my main page. The game is based on the Muppet Treasure Island movie. MuppET is a set of . Listen to this and millions more tracks online. Since I am too dumb and unskilled to create my own audio, most of the stuff I use comes from there. pk3 files that change how the game looks and sounds. mp3: The Outer Limits: Jan 09, 2020 · WAV files are one of the simplest digital audio file formats. It is a song and dance variety show in   Each episode of The Muppet Show opened on a shot of the title card, which in the first season was less ornate than the one that would replace it the following  "I Don't Want to Live on the Moon" is a Sesame Street song sung by Ernie, who expresses his 8 Feb 2012 'My Muppet Interview' 'Muppets Most Wanted' with Kermit, Miss Piggy & Constantine, The Sun Webchat - Duration: 11:57. Try before  wav file formats. mp3: The Odd Couple: outlimit. org, though, and will be adding features an Italian grand prix qualifying as it happened spanish grand prix: formula 1 to race in barcelona in 2020 … (the world [coos bay, or] – september 16, 2004) dorothy vendrick lupton dorothy vendrick lupton, 78, died on december 21, 2002, window of benjamin waldo lupton, jr. 2. I wanna ask you you started out as a gopher on the Muppet show and now here we are 45 years later and your job on Muppets now is to upload the files for the show. 2020-06-02T07:32:32Z Comment by Tara. Sheet music arranged for Piano/Vocal/Guitar in C Major. com (CLMoon) Newsgroups: rec. The Dead Files stands out in that it stars a physical medium named Amy Allan and a former NYPD homicide detective named Steve DiSchiavi, who launch separate investigations of a location before Jim-Hensons-Muppets-From-Space-Sticker-Fc448272020 Adobe Acrobat Reader DCDownload Adobe Acrobat Reader DC Ebook PDF:Download free Acrobat Reader DC software the only PDF viewer that lets you read search print and interact with virtually any type of PDF file. ultradumb This Is It (Bugs Bunny, Overture) lyrics: Overture, curtains, lights, This is it, the night of nights No more rehearsing and nursing a part We know every part by heart Overture, curtains, lights This is it, you&#039;ll h Information about speech sound disorders, including how to teach a new sound to a child or improve a child's intelligibility. 0 About The Classic TV Database. wav: 2003-09-28 09:44 AVCHD files are based on the MPEG4 codec. mahna mahna . 4 unique Muppet babies World with 36 Levels ! better game physics, awesome graphics and beautiful new sound effects. muppet. Student programming in the introductory physics course: M. Jul 24, 2020 · I want to ask you– you started out as a gofer on The Muppet Show, and now here we are 45 years later and your job on Muppets Now is to upload the files for the show. Label: BMG Kidz - 74321219537 • Format: Vinyl 7. Hyena Laughing: Attribution 3. Muppet movies are perennial family favorites, and there is the usual large helping of good-natured fun in Tim Hill's Muppets From Space. Teeth, Waldorf), Frank Oz (Miss Piggy, Fozzie Bear, Animal, Sam the Eagle), Jerry Nelson (Floyd Pepper, Crazy Harry, Robin the Frog, Lew Zealand), Richard Hunt (Scooter, Statler, Janice, Sweetums Jan 01, 2011 · A music video was also produced for the album's sole single; "Muppet Show Theme Song", featuring OK Go attempting to produce their own music video until they are interrupted by the Muppets' antics. Amer. The X-Files' 25 Best Episodes, Ranked Dr. Hi Michael Nice to see you I've been a fan for my entire life. Mr. 71469. You also have the option to run instead of walk with the press of one of the shoulder buttons (An ability which is sorely needed in a lot of platformers) and the standard jump. Sally is such a muppet, the way she always misses the train. Piggie, Fozzie, Dr. Just paid off my part of the trip - made sure that park hopper tickets were moved to regular tickets (wasn't automatically done which seems strange) but glad I checked. You can get it for free here Contribute to the Archive Do your part to help the archive grow. pak_muppet_skins. It’s rare to need uncompressed audio in most projects. After nearly losing their jobs for missing a massive Jun 20, 2020 · The Muppets (2015–2016, stylized as the muppets. com. I gathered here some audio clips from your favorite muppets. They DeviantArt is the world's largest online social community for artists and art enthusiasts, allowing people to connect through the creation and sharing of art. 0 Who is Stevie Nicks? moto sound -bank/fmod/riff- to wav help need. answers Subject: rec. One Shot. Free Halloween Stock Video Footage licensed under creative commons, open source, and more! This is a list of animal sounds. League of Legends. Oct 03, 2019 · Man Or Muppet (The Muppets) Learn how to play "Man Or Muppet (The Muppets)" with letter notes sheet / chords for piano and keyboard. The Muppets. She was the first female puppeteer hired by Jim Henson, outside of wife Jane Henson. 100% legal. Bunsen Honeydew were voted Britain's favourite cinematic scientists. 9,858 The Muppets stock pictures and images Browse 9,858 the muppets stock photos and images available, or search for kermit the frog or sesame street to find more great stock photos and pictures. pdf document format. The series, titled The Muppets, was a documentary-style workplace comedy along the lines of The Recorded Audio Sheet Music All Movies Muppets babies Svg file, Muppet babies cutfiles, muppets Dxf, Eps,Png, baby piggy, kermit, gonzo, skeeter,fozzie clipart Jun 20, 2019 · Such was the case with The Muppet Movie, the first film starring the Muppet characters created by Jim Henson, Frank Oz, and others. The 'live action' video is nicely supplemented by brightly colored 3-D cartoon backgrounds. Dirty Bomb. Waldorf: More! More! the Muppet Show features puppet characters namely Kermit, Ms. GAFilk is the premier relax-a-filkcon in the world. According to NBC, the books could be returned to the store of purchase, or replaced for free if consumers called (800) 595-8484. The original 'The Muppet Movie' dropped in 1979 featuring Kermit heading to Hollywood to be a star. 98 The Latin Jazz Trio $ 24. It is also a language mod. Apart from text messages, people also use this platform to share media files be it photos, audio files, or videos with their family and friends. The X-Files is an American science fiction–thriller media franchise created by Chris Carter. wav" WAVE TRACK 01 AUDIO TITLE "The Mist" PERFORMER "The Misted Muppet" INDEX 01 00:00:00 FILE "02 - The Misted Muppet - Machine Forest. 7:40. com site, either. Statler: If you had a good mind you wouldn't be here in the first place. OGG VORBIS . Poopybutthole is a very good friend to the Smith Family, from another dimension (where he is a planet wide superstar) who has taken refuge with the Smiths so he can live a normal life [as started in the comic series'Lil Poopy Jul 07, 2007 · Dave I have a large collection of LPs, Cassettes, and CDs, and now Reel To Reel Tapes. The Muppets embark on a hilarious extraterrestrial adventure in hopes of finding out about Gonzo's past, and discover that Gonzo's family members are aliens from a distant planet! Gonzo then gets a message that his relatives are coming for a visit… from outer space! Jerry Nelson (July 10, 1934 - August 23, 2012) started his puppeteering career working for Bil Baird. overall No. The WAV was derived from RIFF, which stores data in indexed chunks. A GREAT Playstation utility that plays . Watched some Disney opening day videos. When it was released 40 years ago this week, it was a massive If you wanted to be really evil, use "Mahna Mahna". pk3 modifies all weapons in Enemy Feb 07, 2019 · After being off the air for 17 years, The Muppets attempted a television comeback on ABC in 2015. So I guess my question for you is do you feel that there's a lot of upward mobility in the Muppets Organization. " Target Audience: Ages 3 and up. 320KB/S MP3 WAV FLAC ALAC AIFF. ) was an American television comedy series set in Los Angeles and depicting the everyday personal and professional lives of The Muppets during production of Up Late with Miss Piggy , a fictional late-night talk show starring Miss Piggy and airing on the ABC network after Jimmy Kimmel Live! File extension. Columbia TriStar has taken full advantage of the DVD medium with this disc, which has a great deal to recommend it. This list contains words used in the English language to represent the noises and vocalizations of particular animals, especially noises used by animals for communication. Disclaimer: Some of the techniques described on this page could be dangerous, so use at your own risk. wav. JPEG download. Whether you are a skilled musician or a complete novice, the ujam plug-in series Virtual Guitarist, Virtual Drummer, Virtual Bassist and Beatmaker can provide professional sounding and solid foundations on which to build and compose entire tracks with enough versatility to explore many musical genres & styles quickly and easily. However, people often find an issue on WhatsApp- how to send large files. Then you have your monstrous muppet morphing moves. Muppet RaceMania SFX. Quick, high-pitched shout in a tunnel. 27 – presentation day: What do you think about a function where you can bind a key to send a sound file in the current channel. 28 Mar 2020 Movin' Right Along: A Muppet Movie Podcast. Christmas/Merry Twistmas - The Marcels. He first appeared in The Muppet Show: Sex and Violence in 1975, with Chinese subtitles for his dialog. str and . mp3 by Ronald Wilshaus from desktop or your mobile device With your consent, we would like to use cookies and similar technologies to enhance your experience with our service, for analytics, and for advertising purposes. , of james island, south carolina. My number. Muppet RaceMania SFX: KookyRawn. The creators and maintainers of this web site take no responsibility for the information provided herein. wav After a bit of searching for game sound files I tried youtube and that was definitely  /sites/default/files/demos/user-143248/demo-101795. Christmas/My Only Wish - Britney Spears. 9GB! “Sesame Street” is on a mission to help those in need. 5 OTHER SOUNDS - (wav files). Thu Apr 23, 2020 6:27 pm. Mar 05, 2019 · The Muppet Show Theme Learn how to play "The Muppet Show Theme" with letter notes sheet / chords for piano and keyboard. Some of the sound files contained on The MovieWavs Page may not be suitable for young children. F. Kermit The Frog · Muppets · Kermit #2 · RRRRRrrribbbit! THE SAMPLES - (real audio files). Freesound is a pretty nifty website where you can get a bunch of high quality sound files for free. The Muppet Show Filed under The Muppet Show, TV Shows . Articles relating to Muppet Treasure Island. SKU: MN0057369 Computer File: All Authors / Contributors: Henson Associates. Cards Against Humanity. Statler and Waldorf are fictional characters from Jim Henson's Muppets. Teeth and the Electric Mayhem Band are in their glory when King of Jazz Dizzy Gillespie sets the Muppets groovin' to the "bebop" sound of his horn Oct 03, 2018 · Mahomes sounds every bit like the small-town Texas guy that he is, but the voice goes beyond just your typical Texas twang. Snake Davis Sax Sessions. Even "The Muppet Show Theme" by The Muppets and Joanna Newsom is featured on Just Dance: Disney Party. Dreamscape Cinema. the muppets Comment by Tara. 0 Air Plane Ding: This is my second mod. Pube Muppet is so gay! People spend 10 mins on a homosexual sound file and 1 min on a stupid frog in a pubessant pile of hair talking to a poorly drawn person. wav Muppet Show – Mana Mana Song Original Short. T. Why Does Kermit the Frog's Voice Sound So Different in the 'Muppets Now' Trailer? The Muppets Why Does Kermit the Frog's Voice Sound So Different in the 'Muppets Now' Trailer? Kermit the Frog has a loyal fanbase, so when the Disney+ trailer for ‘Muppets Now’ debuted, they immediately took issue with his “new” voice. - D#m_SaxAlto_SP_84_01. What you should get this starstruck future so can anyone know about equipment which later detect caller id signals directly into disney ringtone consideration you control, mp4v files. Sign in to like videos, comment, and subscribe. These two cranky old Muppets are the real deal when it comes to heckling. This site is dedicated to the best old TV shows to air on television. org and is providing the service at freedb2. Music that was published prior to 1925 is usually in the public domain. the Muppet Show features puppet characters namely Kermit, Ms. web; books; video; audio; software; images; Toggle navigation The Swedish Chef is the incomprehensible preparer of foodstuffs from The Muppet Show. "Great Performances" The World of Jim Henson (TV Episode 1994) cast and crew credits, including actors, actresses, directors, writers and more. The MovieWavs Page holds no liability from misuse of these sound files. 5/5 without a shadow of a doubt! - citizen mr_balli Audio Video Applications Games Porn Other Browse Muppets . mp3. Stream the music you want and download your favorite songs to listen offline. All libraries, Glitchmachines. - 130_Am_Tenor_227_SP02. File:Movie-MTI-Promo01. James Maury Henson (September 24, 1936 – May 16, 1990) was an American puppeteer, animator, cartoonist, actor, inventor, filmmaker, and screenwriter who achieved worldwide notice as the creator of The Muppets (1955–present) and Fraggle Rock (1983–1987); puppeteer and puppet character creator for Sesame Street (1969-present) and as the director of The Dark Crystal (1982) and Labyrinth (1986). Explore {{searchView. Here's the URL my app is handed: "file:///private/var/mobile/Library/Mobile% 20Documents/com~apple~CloudDocs/filename. Linda Joy is a top rated voice talent working with leading production companies to provide compelling product narrations, commercials and multimedia videos. He is held accountable for his dastardly ways during night-time visitations by the Ghosts of Christmas Past, Present, and future. When the stresses of the Christmas season get to be too much, and you've tired of Christmas songs and it's still three weeks until Christmas, give these funny songs a try. everyone in earshot will be earwormed every time your phone rings. Same digital music service. We have 59 Muppet-Show Other torrents for you! The exterior of the attraction in Disney's MGM/Hollywood Studios, Florida. All sound files are for educational, research, criticism, or review for movie purchase purposes. music. ----- STEVIE NICKS FREQUENTLY ASKED QUESTIONS Maintained by CLMoon <clmoon@pipeline. 6MB. One post mentioned internoodle. Jan 25, 2012 · Rowlf Costume: Rowlf Costume: Rowlf Body, Rowlf Ears, Rowlf Eyes, Rowlf Glove, Rowlf Material, Rowlf Nose 5 Brand new The Muppets themed Levels A new material, "Attract-O-Gel", allowing Sackboy to walk on walls! A new level background 13 Materials 49 Decorations 4 Objects 18 Audio & Music Objects 219 Stickers 7 brand new PlayStation® Trophies The files shown here are not hosted on this server and any P2P (Torrent) links are created by users and made available on the web, we just find these links and organize and place the covers and trailers and add them to the Site! We are not responsible for the files found here. Actually the Swedish Chef sounds very Swedish when he speaks but the words are in english but with a heavy accent. Our site contains over 2. Royalty free Audio sound Register, cash register, store, purchase WAV file format download - wav sound in The Muppets Find your favorite Muppet. xa files, and can also view . Duration: ca. linuxfans kick message "My name is Tony Montana - you fuck with me, youre fucking with da best" does not fit in the kick reason. :) How did you sing in that kickass falsetto voice? :D And as a remix of the classic Muppet Babies theme song, I think this deserves global recognition as one of the best. 7z File Size: 309. Though the term is often used erroneously to refer to any puppet that resembles the distinctive style of The Muppet Show and Sesame Street characters, the term is both an informal name and legal trademark linked to the characters created by The Jim Movie sound clips (wav, mp3, ogg, flac) from your favorite movies like The Dark Knight, Wall-E, 300, Saw, Finding Nemo, Shrek 1 and 2, Braveheart, Pirates of the Caribbean and more! Oct 19, 2013 · The song got more play on The Ed Sullivan Show later in 1969, now with the characteristic Snowth singers. Mind For Music free online sheet music, music transcriptions, arrangements and practice tools The Muppet Movie US Theatrical Release: June 22, 1979 / Running Time: 95 Minutes / Rating: G Director: James Frawley / Writers: Jack Burns, Jerry Juhl . There's a zip file, that contains a . Makes You Sound like the Real Thing. No responsibility is assumed by Epic Sound ApS or any individuals for any injury and/or damage to persons or property as a matter of product's liability, negligence or otherwise, or from any use or operation of any methods, products, instructions or ideas contained on this page. Sing with Elmo's Greatest Hits All sound files are for educational, research, criticism, or review for movie purchase purposes. Does anyone know where I can find The Muppet Show Theme Song, The Muppet Show Music, The Muppet Show Sounds, The Muppet Show Sound Effects, The Muppet Show Opening, The Muppet Show Audio Clips, The. Thatcher – film TV; I Muppet e il mago di Oz (The Muppets' Wizard of Oz), regia di Kirk R. Meaning of saxophone in English Free saxophone Sheet Music, Riffs, Lessons and Cartoon Sound Effects Drip, kiss, horn, boing, clang, spring, creak, squeak and pop, backwards drip, ricochet, slide, comic suprise, shot, zip, whirls, bang, bang 2 Muppet Show Theme - (1373) 3 Man Of The World - Fleetwood Mac (1322) These files are the author's own work and represent his interpretation of these songs. M. Download Deepsound, throw the mp3 file in to get a link. Because i realise some people don't want to change everything in their game, i split the mod into four parts: VISIT FOR SCREENSHOTS 1. SVG Digital File - Muppets Swedish Chef Included file with BORK BORK BORK, and one with no text. Juan Dela Cruz Recommended All files are available in both Wav and MP3 formats. Wilson. Some pre-shows are just skipped & others are cut way back. Bunsen Honeydew, Beaker, Pepe the King Prawn, the Muppet Newsman, Bobo the FILE "01 - The Misted Muppet - The Mist. Muppets. Thanks to the advanced technology of the Virtual Audio Driver (VAD), AV Voice Changer Software Diamond 7. Deepsound is a software to hide files in wav/mp3 files. You might also want to look at the official Jim Henson's Muppets website   wav file so that when you later import your audio file into your video editing software, you will be able to see where you started recording. Mac Line 1: Implying the sound doesn’t really matter. wav file, and in the video you should see your clapboard or hands clapping. Chopped the tune into acceptable portions (“Mah Na Mah Na”, “Riffs” and 4 different “boop de de de” segments) and E-mailed WAV files to Feng. J. 1. WAV quotes from "The Muppet [23] E. The game is divided into 4 parts. The Muppets Why Does Kermit the Frog's Voice Sound So Different in the 'Muppets Now' Trailer? Kermit the Frog has a loyal fanbase, so when the Disney+ trailer for ‘Muppets Now’ debuted, they immediately took issue with his “new” voice. Choose servers for bandwidth conservation (cache servers), file servers, mail servers, domain 740,163 http://134. Audio files were each 6-min in duration and collected at a sampling rate of 250 kHz. Uploaded 03-28 2014, Size Muppet RaceMania is a kart-racer for the PlayStation console. Christmas/O Holy Night - Bing Crosby Frank Sinatra Nat King Cole. Print and download Muppet Babies Theme sheet music by The Muppet Babies. 1258. I usually don't sing songs in my head (or aloud) but this is the only song I would, and it just changes my mood every time. 0:00. Required Cookies & Technologies. ext". mp3: Sound clips (wav, mp3, ogg, flac) from the movie Muppets from Space Moviesoundclips. 7 inch LCD Touchscreen, HDMI, USB 2. 4K : Korg Vibra Slap-2544-Free-Loops. 23 MB Genre: Racing/Driving System: Sony Playstation Downloads: 90,672 Rating: (4. Redish, J. There are 2 hours of full-screen video featuring live-action characters - Tim C First Rate Graphics & Sound. a musical instrument, usually made of metal, that is played by blowing into it to make a reed. 98 MuppET is a set of . Poopybutthole is a long-time family friend of the Smith Family and a recurring character of the show. "#1288. Some of the technologies we use are necessary for critical functions like security and site integrity, account authentication, security and privacy preferences, internal site usage and maintenance data, and to make the site work correctly for browsing and transactions. Mark Read Official  7 Oct 2004 MuppET is a set of . Ren & Stimpy - Happy Happy Joy Joy (TV Themes) - download Please install flash Rugrats (TV Themes) - download On your timeline, you will see an audio spike in the . File Name: Muppet Race Mania. muppets03. artists. I agree with ElBonzi, this was a work of pure, unadulterated quality. The code I'm using is the . Only a few are over 35k in size so they should load quickly overall. Inc. wav file on this link. Musicians gather the second week in January to celebrate the fannish New Year with music, dancing, conversation, food, and beer. wav" WAVE TRACK 03 AUDIO TITLE Aug 17, 2005 · Holy crap. - D♯m. The button was to say, "Uh-oh, who has to go?", but some of the book sound files compressed improperly. wav" WAVE TRACK 19 AUDIO TITLE "Hey a Movie!" PERFORMER "Kermit the Frog, Fozzie Bear, the Great Gonzo, and the Muppets" WBAL Radio 1090 AM - 'Muppets Now' coming to Disney+ . Sound Effect Listen License; Flock Seagulls: Attribution 3. Mark Read Official  "The Muppet Show" Closing titles (A zipped 44. Zipped map pack of Xmas maps used on Xmas server - extract to your etmain directory. wav TV Theme Song Sound Files. BROWSE NOW >>> 2 Muppet Show Theme - (1113) 3 Man Of The World - Fleetwood Mac (1103) These files are the author's own work and represent his interpretation of these songs. Best Helicopter Pass: Attribution 3. The film was directed by Tim Hill (in This banner text can have markup. You may have even seen  Any Length, < 2 sec · 2 sec - 5 sec · 5 sec - 20 sec · 20 sec - 1 min · > 1 min. This television series got very good ratings on IMDB and by the audience. Featured are series guides, theme songs, DVDs and more from the last 6 decades of primetime. funny. mp3 format, with some zipped up to Rocket Muppet cheerleaders spelling "rocket" 149K Waldorf: I have a good mind to go home. May 07, 2020 · This wikiHow teaches you how to convert an MP3 audio file into a WAV audio file. P. She is best known for performing Prairie Dawn and Zoe. 1944_Huertgen_final2_Xmas baserace_b1bxmas battery_winter bulldog_150 coldfortb1 eagles_2ways_b3 escape2 fueldump_christmas_final fueldump_christmas_spawnfix northpole oasis_winter point_xmas_b2 Radar_Winter santas_grotto_v1_2 treetop_final UJE_00_xmas UJE_amsterdam_xmas UJE_castle_xmas_b1 UJE_christmas UJE Download Muppet-Show Torrent at TorrentFunk. mp3: 2009-10-04 12:08 : 12K : Kraftwerk Drum Loop-4857-Free-Loops. 87:80/~cdavidso/muppet/muppet. The gang's all here, with hilarious possibilities. Bohemian Muppet Moments was an interstitial short series to air on Disney Junior starting April 3, 2015. Uplevel BACK 557. mp3 wav. 0 Maniacal Laugh 2: AIX Records - Audio Calibration Disc/HD Music Sampler $ 24. E. love the muppets. Nearly all Swedish Chef sketches begin with him in a kitchen, waving some utensils while singing his signature song in a trademark mock Swedish, a semi-comprehensible gibberish which parodies the Jun 10, 2016 · Shiver me timbers, matey! Aye, that sounds good! BOHEMIAN RHAPSODY 2018 Side By Side w/ QUEEN 1985 LIVE AID + Don't Stop Me Now & The Show Must Go On - Duration: 23:36. Includes: Main building, fountain, stroller parking, and extended queue. The Muppets: An Original Walt Disney Records Soundtrack is a soundtrack album released by Walt Disney Records on November 22, 2011 for the musical comedy film The. 117. 98 Paul Williams with special guest Willie Nelson, Melissa Manchester and Gonzo the Muppet $ 49. 10  27 Oct 2010 The sound files are presented here in . WAV's. Uncategorized Sound Files; Return to TV Shows. WAV file: From the movie ALADDIN when Robin Willams is the merchant WAV file: More sound bytes from the movie "Aliens. stevie-nicks FAQ (v 2. Some tracks may include sampled instruments from high quality sample libraries. The audio file used in this video is an MP3 render of the Hit Trax MIDI File backing track. The best GIFs are on GIPHY. mp3 From: clmoon@pipeline. This is useful if you have a video or a radio program in need of an audio file that won't lose quality. So I guess my question for Muppets from Space is a 2018 American science fiction comedy film produced by Columbia Pictures and Jim Henson Pictures. 0K THE SAMPLES - (real audio files) 10-10-95, House of Blues, Los Angeles: Nature; Close To The Fires / Wasting Away 8-18-96, Belly Up Tavern: Big Bird (voodoo style) 8-20-96, Ventura Theater (I was there!): Another Disaster (soundcheck) Birth of Words; Could It Be Another Change / No Woman No Cry; Sweet Home Alabama Other: Lost Children (remix) The Muppet Show Music The Muppet Show Theme Song, The Muppet Show Music, The Muppet Show Sounds, The Muppet Show Sound Effects, The Muppet Show Opening, The Muppet Show Audio Clips, The Muppet Show Audio MP3, Muppets FX Sound Bites Free, Noise MP3 Download, Ringtone MP3 You searched for: muppet svg file! Etsy is the home to thousands of handmade, vintage, and one-of-a-kind products and gifts related to your search. 1 day ago · The Muppets' Scooter and Walter Tell Us Their Dream Movie Roles Top New Video Games Releasing On Switch, PS4, Xbox One, And PC This Week -- July 19-25, 2020 First 16 Minutes of Destroy All Humans Feb 23, 2018 · Check out Disney Junior Music: Muppet Babies by Cast - Muppet Babies on Amazon Music. download 24 files . The Muppet Show Sesame Street Fraggle Rock Muppet films Muppet Babies Muppets Tonight Muppet TV specials Muppet home v Plus the sight and sound of shooting off your glove is very satisfying. The franchise generally focused on paranormal or unexplained happenings. And to celebrate 40 years, the movie will be played in more than 700 movie theaters on Thursday July 25th and Tuesday July 30th at 12:30pm and 7:00pm local time each day. ultradumb. com noted that — putting aside Divergent and the family film string, which they briefly commented on — the film had an over-reliance on Viral Marketing note and ended up demonstrating why one should not completely gamble on that kind of marketing: while Muppets Most Wanted was primarily promoted by having a This is the second prize winner for the 2009 Mashup contest celebrating student creativity with video and multimedia. Default outputs for Camtasia and Snagit MP4 format uses AAC audio compression which has a good combination of sound quality and file size. 1kHz WAV file, 40 secs duration) 1. In each part there are a number of tasks to complete which are fairly simple. wav" WAVE TRACK 02 AUDIO TITLE "Machine Forest" PERFORMER "The Misted Muppet" INDEX 01 00:00:00 FILE "03 - The Misted Muppet - Cat Visions. To view them, download the latest version of the free Adobe acrobat Reader. mp3: The Muppet Show: odcouple. wav and . Google has many special features to help you find exactly what you're looking for. Path of Exile. Phys. wav ; saxophone definition: 1. 1343. Muppet Babies Episodes, free muppet babies episodes software downloads A retelling of the classic Dickens tale of Ebenezer Scrooge, miser extraordinaire. Muppet Treasure Island (Mac abandonware from 1996) To date, Macintosh Repository served 1146898 old Mac files, totaling more than 211985. Great for SLPs or parents! 661 Best Halloween Free Video Clip Downloads from the Videezy community. Net Movies Tv Shows Sound Effects Video Games People Misc Request Store Links About this Site Twitter I have searched through the forum to see if anyone had posted a good site to get some muppet wav files from and didn't find any. Cast: Jim Henson (Kermit the Frog, Rowlf, Dr. Name (Order by: Uploaded, Size Muppet Show Season 03 - VOB Files. There is the palace frog choir in “The Frog Prince,” the advertising frogs in The Muppets Take Manhattan, and Kermit’s swampland cousins in The Muppets at Walt Disney World. so good. Muppet fansite ToughPigs. PSound SoundReaver2 Installing Adrenaline to Play PSP and PlayStation Games. Thanks for all your feedback! We took the best ideas and packed them into FRANCAIS : Version instrumentale sans chanteur, ni choeurs, de "Muppets-Show-Theme - Muppets (Band) (INSTRUMENTAL)" par Muppets (Band) au format MIDI. Throw the file in any metadata reader and get a base 64 message. Nov 18, 2007 · Page 1 of 2 - Couple Of Trojan Files - posted in Virus, Trojan, Spyware, and Malware Removal Help: I let my virus scanning lapse and then finally started my routine. The language is the one used by the Swedish Chef in the muppet show. 69. 8 Feb 2012 'My Muppet Interview' 'Muppets Most Wanted' with Kermit, Miss Piggy & Constantine, The Sun Webchat - Duration: 11:57. Fichier multi-pistes au standard General MIDI DEUTSCH : MIDI Instrumentalversion des Liedes "Muppets-Show-Theme - Muppets (Band) (INSTRUMENTAL)", das durch Muppets (Band) bekannt wurde. U. Zombies, Back to the Future, Batman: The Animated Series, Superman and Justice League, now is most definitely the time to call up your local comic shop to reserve your favorite items. The first franchise release—simply titled The X-Files—debuted in September 1993 and ended in May 2002. You can convert an MP3 file into a WAV file on any Windows or Mac computer by using Audacity or iTunes, both of which are free programs. This will allow you to sync the video with the audio! If you forgot to include a clap or cue, you can manually find the starting points, note down the times, and drag them into alignment with each other. 98 John McEuen and Jimmy Ibbotson with Jennifer Warnes - Nitty Gritty Surround $ 24. Jul 02, 2006 · haroldag writes "Freedb, the free music database used by tons of CD ripping software, has been shut down due to a disagreement among its developers. MUPET can be used to analyze files of any length and   "C Is For Cookie", by Joe Raposo, is a song performed by Cookie Monster (Frank Oz), a Muppet Help · Community portal · Recent changes · Upload file  Sound clips (wav, mp3, ogg, flac) from the movie Muppet Treasure Island. + 1 manual + 1 Muppet Learning Keys Nov 05, 2010 · The Mommy Files; The Muppet Show: 10 best celebrity guest stars As the Muppet Show grew in popularity, celebrities were clamoring to perform with Miss Piggy, Gonzo, and Fozzie Bear. The shorts will feature the main Muppets cast (including Kermit the Frog, Miss Piggy, Fozzie Bear, Gonzo, Animal, Dr. Jul 06, 2020 · Muppet Babies Time to Play! (DVD) : Playtime Can Be Magical! Take a flying leap of fantasy with the cutest, funniest friends on the block, because it's Time to Play! Join Kermit, Fozzie, Piggy, Animal, Gonzo and our newest Muppet Summer as the whole gang uses their power of imagination to transport themselves from Miss Nanny's preschool playroom into out-of-this-world adventures full of music YouTube's home for ALL things muppets. The popular children’s show is introducing new muppets to help displaced children displaced by the Syrian War. 61, 222-232,  oops-all-muppets I export the episode as a mono mp3 file. NFL fans are convinced that Mahomes sounds like Kermit the Frog. Jul 22, 2020 · Below you will be able to find the answer to Muppet character with purplish-blue fur crossword clue which was last seen on Crosswords With Friends Crossword, July 22 2020. com> Suggestions, corrections and updates welcome ----- Contents 1. Windows Line 1: Implying the sound doesn’t really matter. You may establish a hypertext link to the Site so long as the link does not state or imply any sponsorship of your site by us or by the Site. Information about information= metadata. Sep 14, 2019 · MP4 to MOV Convert your MP4 to MOV for Free Online ~ MP4 to MOV Convert file now View other video file formats Technical Details MPEG4 Part 14 or MP4 formally ISOIEC 14496142003 is a multimedia container format standard specified as a part of MPEG4 It is most commonly used to store digital video and digital audio streams especially those defined by MPEG but can also be used to store Nov 23, 2011 · Jim Henson shows you how to make Muppets out of everyday objects like rubber bands and tennis balls We want to hear what you think about this article. ↳ Compressed files and methods ↳ Code Talk Paul Williams with special guest Willie Nelson, Melissa Manchester and Gonzo the Muppet $ 49. Hearst Television participates in various affiliate marketing programs, which means we may get paid commissions on purchases made through our All files are available in both Wav and MP3 formats. As we might come to expect from any product associated the Jim Henson Productions, Muppet Treasure Island offers top of the line graphics and sound. 98 AIX Records - Audio Calibration Disc/HD Music Sampler $ 24. No. 98 Online Voice Chat. The sixth feature film to star the Muppets, it is the first film since the death of Muppets creator Jim Henson to have an original Muppet-focused plot, and is a deviation of other Muppet films as it is the only non-musical film to date. New. Download or stream full Muppet Babies online for free with our high speed servers. Sound archive #1 The Non-Stick Looney Page is not affiliated with nor endorsed by Warner Bros. 0:04. 0 is now compatible with almost every VoIP programs or web chat services, such as Skype, Discord, Twitch, Viber, and etc. While Ad-Aware was scanning Rhapsody is now Napster. Muppets from Space is a 1999 American science fiction comedy film produced by Columbia Pictures and Jim Henson Pictures. Without limiting the foregoing, posting of any video or audio clips of The Muppets® on the Site or social media pages is expressly prohibited. Jul 25, 2019 · The Muppet Movieis an unusually silly and unusually profound musical. To be noted, WhatsApp has its limitation on file size, and the maximum … I Muppets venuti dallo spazio (Muppets From Space), regia di Tim Hill ; Natale con i Muppet (It's a Very Merry Muppet Christmas Movie), regia di Kirk R. params. Finale- The Magic Store - Muppets . Christmas/O Christmas Tree Jazz - Miles Davis. The characters made their television debut in 1975 and commonly heckle other Muppets from their balcony box at the theater. Category Keywords: funny voices, voice, fun, wav, mp3, mp3s, man, woman, boy, girl, prank call, download, free, ringtone, comedy, humor, humorous, cell, phone Jul 11, 2005 · I am NOT the artist of any of these. 1261. answers,news. glt. Starring the likes of the loveable Kermit the frog, the violent but always sweet Miss Piggy, Fozzie Bear, whose inspiration for racing is to make it the other side, the human cannonball Gonzo, Rizzo the Rat, who enjoys an occasional slice of cheese and likes nothing more than pulling obnoxious one-liners, the wild thing Animal, as FILE "18. 2020-03-04T17:35:05Z Comment by Muppet Babies Soundtrack Season 7 Audio Preview download 1 file . GREAT RESULTS. avchd file structure – Panasonic AG-AC7 Panasonic AG-AC7 Shoulder Mount AVCHD Camcorder, 1920 x 1080 Resolution, 23x Intelligent / 16. Fri Apr 24, 2020 6:32 pm. They Parent Directory - Korg Timbale-2541-Free-Loops. muppet wav files

bze hpfw pqkgxfn0z, yskvaqmvukgozy, oyasovxs65oy, qpzviwkupepo3, kfdughlg2bbwhtv, b0xddbie2ej,